Regarder un film | Mr D S08E02 WEBRip x264-TBS[rarbg] | A Little Night ...

Family Guy S14E18 PROPER 720p HDTV x264-FLEET[rartv]

seeders: 29
leechers: 2
updated:
Added by z0n3212.59M in TV
Torrent verified. Downloaded 6,269 times.

DownloadFast Safe Anonymous
movies, software, shows...
  • View all Family Guy episodes
  • Episode title: The New Adventures of Old Tom
  • Episode: S14E18
  • Air date: 08 May 2016
  • IMDb link: 0182576
  • TVmaze link: Family Guy
  • Original run: 31 January 1999 — Present
  • Summary:

    In a wacky Rhode Island town, a dysfunctional family strive to cope with everyday life as they are thrown from one crazy scenario to another.

    Written by Thhaque414.99K
Available in versions: 1080p720p480pHDTVWEBRipx264x265iPhone
Family Guy S14E18 PROPER 720p HDTV x264-FLEET[rartv] (Size: 278.77 MB)
  Family.Guy.S14E18.720p.HDTV.x264-FLEET.mkv 278.77 MB
  rarbg.com.txt 34 bytes
  Family.Guy.S14E18.720p.HDTV.x264-FLEET.nfo 731 bytes

Description


http://rarbg.to
Family.Guy.S14E18.PROPER.720p.HDTV.x264-FLEET[rartv]

image
Screens :

image
Mediainfo :

Video
ID : 1
Format : AVC
Format/Info : Advanced Video Codec
Format profile : [email protected]
Format settings, CABAC : Yes
Format settings, ReFrames : 5 frames
Codec ID : V_MPEG4/ISO/AVC
Duration : 21mn 59s
Bit rate : 1 353 Kbps
Width : 1 280 pixels
Height : 720 pixels
Display aspect ratio : 16:9
Frame rate mode : Constant
Frame rate : 23.976 (24000/1001) fps
Color space : YUV
Chroma subsampling : 4:2:0
Bit depth : 8 bits
Scan type : Progressive
Bits/(Pixel*Frame) : 0.061
Stream size : 213 MiB (76%)
Writing library : x264 core 148 r2665 a01e339
Encoding settings : cabac=1 / ref=5 / deblock=1:-2:-2 / analyse=0x3:0x113 / me=umh / subme=8 / psy=1 / psy_rd=1.05:0.00 / mixed_ref=1 / me_range=16 / chroma_me=1 / trellis=1 / 8x8dct=1 / cqm=0 / deadzone=21,11 / fast_pskip=1 / chroma_qp_offset=-2 / threads=22 / lookahead_threads=3 / sliced_threads=0 / nr=0 / decimate=1 / interlaced=0 / bluray_compat=0 / constrained_intra=0 / bframes=3 / b_pyramid=2 / b_adapt=2 / b_bias=0 / direct=3 / weightb=1 / open_gop=0 / weightp=2 / keyint=250 / keyint_min=23 / scenecut=40 / intra_refresh=0 / rc_lookahead=50 / rc=crf / mbtree=1 / crf=18.0 / qcomp=0.60 / qpmin=0 / qpmax=69 / qpstep=4 / ip_ratio=1.40 / aq=1:0.70
Language : English
Default : Yes
Forced : No

Audio
ID : 2
Format : AC-3
Format/Info : Audio Coding 3
Mode extension : CM (complete main)
Format settings, Endianness : Big
Codec ID : A_AC3
Duration : 21mn 59s
Bit rate mode : Constant
Bit rate : 384 Kbps
Channel(s) : 6 channels
Channel positions : Front: L C R, Side: L R, LFE
Sampling rate : 48.0 KHz
Frame rate : 31.250 fps (1536 spf)
Compression mode : Lossy
Stream size : 60.4 MiB (22%)
Language : English
Default : Yes
Forced : No

Text
ID : 3
Format : UTF-8
Codec ID : S_TEXT/UTF8
Codec ID/Info : UTF-8 Plain Text
Title : English
Language : English
Default : No
Forced : No

Sharing Widget


Download torrent
278.77 MB
seeders:26
leechers:4
Family Guy S14E18 PROPER 720p HDTV x264-FLEET[rartv]



To share this torrent use the code below and insert it into comments, status messages, forum posts or your signature.

Torrent: Family Guy S14E18 PROPER 720p HDTV x264-FLEET[rartv]

Trackers

tracker name
udp://tracker.openbittorrent.com:80/announce
http://retracker.krs-ix.ru/announce
udp://tracker.coppersurfer.tk:6969/announce
udp://glotorrents.pw:6969/announce
http://announce.xxx-tracker.com:2710/announce
http://tracker.dler.org:6969/announce
http://tracker.mg64.net:6881/announce
http://explodie.org:6969/announce
udp://tracker.opentrackr.org:1337/announce
µTorrent compatible trackers list

Locations

name
KickassTorrents
Torrent hash: D4FA4BDB8C3495A39A016D544E9EC8875D575C6B

All Comments

audio
10/10
video
10/10
please, leave only comments related to that torrent
Sign In

audio: 10video: 10
Thank you z0n3212.59M thumb_up
Awesome upload biggrin
Thanks, uploader!
Now I wanna drink Nestea, God knows why...

User Opinions

queeroid6335, RokitMunky3962, Fragcys1848, sirknz1184, CookieThief1006, leftyrighty898, Anthony_M.898, stalker92884, XcodydudeX410, george_gng376 ... And 67 more
BladesOfSin2189, jezzahgod56
Report a bug Open chat