Modern Family S07E16 PROPER 720p HDTV x264-KILLERS[rartv]

seeders: 40
leechers: 7
updated:
Added by z0n3212.58M in TV
Torrent verified. Downloaded 20,866 times.

DownloadFast Safe Anonymous
movies, software, shows...
  • View all Modern Family episodes
  • Episode title: The Cover-Up
  • Episode: S07E16
  • Air date: 16 March 2016
  • IMDb link: 1442437
  • TVmaze link: Modern Family
  • Original run: 23 September 2009 — Present
  • Summary:

    Three different, but related families face trials and tribulations in their own uniquely comedic ways.

    Written by Eppo77.2K
Available in versions: 1080p720p480pHDTVWEBRipx264x265
Modern Family S07E16 PROPER 720p HDTV x264-KILLERS[rartv] (Size: 653.56 MB)
  Modern.Family.S07E16.PROPER.720p.HDTV.x264-KILLERS.mkv 653.55 MB
  rarbg.com.txt 34 bytes
  Modern.Family.S07E16.PROPER.720p.HDTV.x264-KILLERS.nfo 10.76 KB

Description


http://rarbg.to
Modern.Family.S07E16.PROPER.720p.HDTV.x264-KILLERS[rartv]

image
Screens :

image
Mediainfo :

Video
ID : 1
Format : AVC
Format/Info : Advanced Video Codec
Format profile : [email protected]
Format settings, CABAC : Yes
Format settings, ReFrames : 5 frames
Codec ID : V_MPEG4/ISO/AVC
Duration : 21mn 7s
Bit rate : 3 856 Kbps
Width : 1 280 pixels
Height : 718 pixels
Display aspect ratio : 16:9
Frame rate mode : Constant
Frame rate : 23.976 (24000/1001) fps
Color space : YUV
Chroma subsampling : 4:2:0
Bit depth : 8 bits
Scan type : Progressive
Bits/(Pixel*Frame) : 0.175
Stream size : 583 MiB (89%)
Writing library : x264 core 148 r2665 a01e339
Encoding settings : cabac=1 / ref=5 / deblock=1:0:0 / analyse=0x3:0x113 / me=umh / subme=8 / psy=1 / psy_rd=1.00:0.00 / mixed_ref=1 / me_range=16 / chroma_me=1 / trellis=1 / 8x8dct=1 / cqm=0 / deadzone=21,11 / fast_pskip=1 / chroma_qp_offset=-2 / threads=18 / lookahead_threads=3 / sliced_threads=0 / nr=0 / decimate=1 / interlaced=0 / bluray_compat=0 / constrained_intra=0 / bframes=3 / b_pyramid=2 / b_adapt=2 / b_bias=0 / direct=3 / weightb=1 / open_gop=0 / weightp=2 / keyint=250 / keyint_min=23 / scenecut=40 / intra_refresh=0 / rc_lookahead=50 / rc=crf / mbtree=1 / crf=18.0 / qcomp=0.60 / qpmin=0 / qpmax=69 / qpstep=4 / ip_ratio=1.40 / aq=1:1.00
Language : English
Default : Yes
Forced : No
Color range : Limited
Matrix coefficients : BT.709

Audio
ID : 2
Format : AC-3
Format/Info : Audio Coding 3
Mode extension : CM (complete main)
Format settings, Endianness : Big
Codec ID : A_AC3
Duration : 21mn 7s
Bit rate mode : Constant
Bit rate : 384 Kbps
Channel(s) : 6 channels
Channel positions : Front: L C R, Side: L R, LFE
Sampling rate : 48.0 KHz
Frame rate : 31.250 fps (1536 spf)
Compression mode : Lossy
Stream size : 58.0 MiB (9%)
Default : Yes
Forced : No

Related Torrents

torrent name size files age seed leech

Sharing Widget


Download torrent
653.56 MB
seeders:44
leechers:7
Modern Family S07E16 PROPER 720p HDTV x264-KILLERS[rartv]



To share this torrent use the code below and insert it into comments, status messages, forum posts or your signature.

Torrent: Modern Family S07E16 PROPER 720p HDTV x264-KILLERS[rartv]

Trackers

tracker name
udp://tracker.openbittorrent.com:80/announce
udp://tracker.publicbt.com:80/announce
udp://tracker.coppersurfer.tk:6969/announce
http://tracker.aletorrenty.pl:2710/announce
udp://glotorrents.pw:6969/announce
http://mgtracker.org:2710/announce
http://tracker.dler.org:6969/announce
http://tracker.mg64.net:6881/announce
http://explodie.org:6969/announce
http://glotorrents.com:6969/announce
µTorrent compatible trackers list

Locations

name
KickassTorrents
Torrent hash: 155A060B3027679C04EF91ED3BF8FC3CB130F34B

Top Comments

2
4thof43848
audio: 10video: 10
Thank you z0n3212.58M thumb_up
Great upload clap

All Comments

audio
9/10
video
9/10
please, leave only comments related to that torrent
Sign In

audio: 9video: 9
Thanks !
Thank you for your effort - much appreciated...!!!
audio: 9video: 9
thanks!! smile
audio: 9video: 9
Perfect, Cheers
audio: 8video: 8
Thanks Z0n321
audio: 9video: 9
thanx
audio: 10video: 10
thanks
Show More All

User Opinions

Tommy Jay6917, queeroid6307, rogerAjacto4018, Bravoman00671704, lihtster1296, Rodrigovosk510, gal33r477, wanpis474, katja07280, sinslust145 ... And 260 more
Report a bug Open chat
Descargar APK | Shoujo Kishidan x Knight Tale | Домашний медиа-сервер. Версия 2.19 [UPnP, DLNA, HTTP] (2016) PC