The Legend of Tarzan - 2016 - HDTS - (Dual Audio) [English - Hindi] - x264 - AAC - Makintos13

seeders: 147
leechers: 64
updated:
Added by FireofSword93.47K in Movies
Torrent verified. Downloaded 2,428 times.

DownloadFast Safe Anonymous
movies, software, shows...
  • add The Legend of Tarzan to bookmarks
  • Release date: 01 July 2016
  • Writers: Adam Cozad (screenplay), Craig Brewer (screenplay), Craig Brewer (story by), Adam Cozad (story by), Edgar Rice Burroughs (Based on the'Tarzan' stories created by)
  • Director: David Yates
  • Language: English
Summary:

It has been years since the man once known as Tarzan (Skarsgård) left the jungles of Africa behind for a gentrified life as John Clayton III, Lord Greystoke, with his beloved wife, Jane (Robbie) at his side. Now, he has been invited back to the Congo to serve as a trade emissary of Parliament, unaware that he is a pawn in a deadly convergence of greed and revenge, masterminded by the Belgian, Captain Leon Rom (Waltz). But those behind the murderous plot have no idea what they are about to unleash.

Written by Anette14151.2K Last edited by zoone, 6 days ago
Available in versions: HDTCx264x265ScreenerTeleSyncCam
The Legend of Tarzan - 2016 - HDTS - (Dual Audio) [English - Hindi] - x264 - AAC - Makintos13 (Size: 845.66 MB)
  The Legend of Tarzan - 2016 - HDTS - (Dual Audio) [English - Hindi] - x264 - AAC - Makintos13.mkv 845.66 MB

Description

The Legend of Tarzan - 2016 - HDTS - (Dual Audio) [English - Hindi] - x264 - AAC - Makintos13

image

INFO:


omplete name : H:\aud1(1).mkv
Format : Matroska
Format version : Version 4 / Version 2
File size : 846 MiB
Duration : 1h 45mn
Overall bit rate : 1 119 Kbps

Video
ID : 3
Format : AVC
Format/Info : Advanced Video Codec
Format profile : [email protected]
Format settings, CABAC : Yes
Format settings, ReFrames : 4 frames
Codec ID : V_MPEG4/ISO/AVC
Duration : 1h 45mn
Bit rate : 990 Kbps
Width : 720 pixels
Height : 304 pixels
Display aspect ratio : 2.35:1
Frame rate mode : Constant
Frame rate : 30.000 fps
Color space : YUV
Chroma subsampling : 4:2:0
Bit depth : 8 bits
Scan type : Progressive
Bits/(Pixel*Frame) : 0.151
Stream size : 748 MiB (89%)
Default : Yes
Forced : No

Audio #1
ID : 1
Format : AAC
Format/Info : Advanced Audio Codec
Format profile : LC
Codec ID : A_AAC
Duration : 1h 45mn
Bit rate : 64.4 Kbps
Channel(s) : 2 channels
Channel positions : Front: L R
Sampling rate : 48.0 KHz
Frame rate : 46.875 fps (1024 spf)
Compression mode : Lossy
Delay relative to video : 46ms
Stream size : 48.6 MiB (6%)
Title : Stereo
Default : Yes
Forced : No

Audio #2
ID : 2
Format : AAC
Format/Info : Advanced Audio Codec
Format profile : LC
Codec ID : A_AAC
Duration : 1h 41mn
Bit rate : 63.3 Kbps
Channel(s) : 2 channels
Channel positions : Front: L R
Sampling rate : 48.0 KHz
Frame rate : 46.875 fps (1024 spf)
Compression mode : Lossy
Delay relative to video : 46ms
Stream size : 46.2 MiB (5%)
Title : Stereo
Default : No
Forced : No

Source : Mr Finisher

Screens:

image image image image image image image image image image

Related Torrents

torrent name size files age seed leech

Sharing Widget


Download torrent
845.66 MB
seeders:167
leechers:66
The Legend of Tarzan - 2016 - HDTS - (Dual Audio) [English - Hindi] - x264 - AAC - Makintos13



To share this torrent use the code below and insert it into comments, status messages, forum posts or your signature.

Torrent: The Legend of Tarzan - 2016 ...i] - x264 - AAC - Makintos13

Trackers

tracker name
udp://tracker.openbittorrent.com:80/announce
udp://tracker.coppersurfer.tk:6969/announce
udp://9.rarbg.me:2710/announce
udp://tracker.trackerfix.com:80/announce
udp://p4p.arenabg.com:1337/announce
udp://explodie.org:6969/announce
udp://9.rarbg.to:2710/announce
udp://tracker.opentrackr.org:1337/announce
udp://tracker.piratepublic.com:1337/announce
udp://tracker.sktorrent.net:6969/announce
µTorrent compatible trackers list

Locations

name
KickassTorrents
ExtraTorrent
Torrent hash: 2C7EA34D5CAF7F45850375FDC6571BA5B07F81E6

All Comments

audio
5/10
video
4/10
please, leave only comments related to that torrent
Sign In

audio: 5video: 4
not too much good quality but its better rather than nothing

User Opinions

Report a bug Open chat
Chio's School Road ... | You Me Her | Watch Now